[MagicStar] 真凶标签 真犯人フラグ EP12 [WEBDL] [1080p] [HULU]【生】【附日字】

动漫搬运工 4月前 53


HD 1080p from HULU JAPAN.
alt text
alt text

General Unique ID                      : 136172713349149626385485408120503136544 (0x6671E91EB4456FCA19369C217F51F120) Complete name                  : Shinhannin.Flag.EP12.1080p.HULU.WEB-DL.AAC2.0.H.264-MagicStar.mkv Format                         : Matroska Format version                 : Version 4 File size                      : 1.31 GiB Duration                       : 46 min 11 s Overall bit rate               : 4 070 kb/s Encoded date                   : UTC 2022-01-16 23:41:45 Writing application            : mkvmerge v50.0.0 ('Awakenings') 64-bit Writing library                : libebml v1.4.0 + libmatroska v1.6.2 Cover                          : Yes Attachments                    : cover.png  Video ID                             : 1 Format                         : AVC Format/Info                    : Advanced Video Codec Format profile                 : [email protected] Format settings                : CABAC / 4 Ref Frames Format settings, CABAC         : Yes Format settings, Reference fra : 4 frames Codec ID                       : V_MPEG4/ISO/AVC Duration                       : 46 min 11 s Bit rate                       : 3 942 kb/s Width                          : 1 920 pixels Height                         : 1 080 pixels Display aspect ratio           : 16:9 Frame rate mode                : Constant Frame rate                     : 29.970 (29970/1000) FPS Original frame rate            : 29.970 (30000/1001) FPS Color space                    : YUV Chroma subsampling             : 4:2:0 Bit depth                      : 8 bits Scan type                      : Progressive Bits/(Pixel*Frame)             : 0.063 Stream size                    : 1.27 GiB (97%) Default                        : Yes Forced                         : No Color range                    : Limited Color primaries                : BT.709 Transfer characteristics       : BT.709 Matrix coefficients            : BT.709  Audio ID                             : 2 Format                         : AAC LC Format/Info                    : Advanced Audio Codec Low Complexity Codec ID                       : A_AAC-2 Duration                       : 46 min 11 s Bit rate                       : 125 kb/s Channel(s)                     : 2 channels Channel layout                 : L R Sampling rate                  : 48.0 kHz Frame rate                     : 46.875 FPS (1024 SPF) Compression mode               : Lossy Stream size                    : 41.4 MiB (3%) Language                       : Japanese Default                        : Yes Forced                         : No

下载地址:
最新回复 (0)
返回
发新帖