[MagicStar] 最爱之人 ~The other side of 日本沉没~ 最愛のひと ~The other side of 日本沈没~ EP07 [WEBDL] [720p] [PARAVI]【生】

动漫搬运工 2021-12-13 159


HD 720p from Paravi.
alt text
alt text

General Unique ID                      : 108351320181478252727529089243412351273 (0x5183B48852F4692BD4BF3BDD408EC929) Complete name                  : Saiai.no.Hito.The.other.side.of.Nihon.Chinbotsu.EP07.720p.PARAVI.WEB-DL.AAC2.0.H.264-MagicStar.mkv Format                         : Matroska Format version                 : Version 4 File size                      : 449 MiB Duration                       : 21 min 54 s Overall bit rate               : 2 869 kb/s Encoded date                   : UTC 2021-12-12 16:53:26 Writing application            : mkvmerge v50.0.0 ('Awakenings') 64-bit Writing library                : libebml v1.4.0 + libmatroska v1.6.2 Cover                          : Yes Attachments                    : cover.png  Video ID                             : 1 Format                         : AVC Format/Info                    : Advanced Video Codec Format profile                 : [email protected] Format settings                : CABAC / 3 Ref Frames Format settings, CABAC         : Yes Format settings, Reference fra : 3 frames Codec ID                       : V_MPEG4/ISO/AVC Duration                       : 21 min 54 s Bit rate mode                  : Constant Bit rate                       : 2 760 kb/s Width                          : 1 280 pixels Height                         : 720 pixels Display aspect ratio           : 16:9 Frame rate mode                : Constant Frame rate                     : 29.970 (29970/1000) FPS Original frame rate            : 29.970 (30000/1001) FPS Color space                    : YUV Chroma subsampling             : 4:2:0 Bit depth                      : 8 bits Scan type                      : Progressive Bits/(Pixel*Frame)             : 0.100 Stream size                    : 429 MiB (95%) Default                        : Yes Forced                         : No Color range                    : Limited Color primaries                : BT.709 Transfer characteristics       : BT.709 Matrix coefficients            : BT.709  Audio ID                             : 2 Format                         : AAC LC Format/Info                    : Advanced Audio Codec Low Complexity Codec ID                       : A_AAC-2 Duration                       : 21 min 53 s Bit rate                       : 125 kb/s Channel(s)                     : 2 channels Channel layout                 : L R Sampling rate                  : 48.0 kHz Frame rate                     : 46.875 FPS (1024 SPF) Compression mode               : Lossy Stream size                    : 19.6 MiB (4%) Language                       : Japanese Default                        : Yes Forced                         : No

下载地址:
番组表

最新动漫索引表

联盟成员

字幕组成员搜索表

动画库

动画库搜索表

更多往期

更多往期列表

pFDScB6.jpg
最新回复 (0)
返回
发新帖

关注动漫公众号