[MagicStar] 我们所的律师很麻烦 うちの弁護士は手がかかる EP08 [WEBDL] [1080p] [FOD]【生】【附日字】

动漫搬运工 2月前 14


HD 1080p from FOD.
Japanese subtitles added.
alt text
alt text

General Unique ID                      : 139831502622456696376331319244521772272 (0x6932915BCB6E069C36EAE6AE0AD894F0) Complete name                  : Uchi.no.Bengoshi.wa.Te.ga.Kakaru.EP08.1080p.FOD.WEB-DL.AAC2.0.H.264-MagicStar.mkv Format                         : Matroska Format version                 : Version 4 File size                      : 1.54 GiB Duration                       : 47 min 54 s Overall bit rate mode          : Variable Overall bit rate               : 4 603 kb/s Frame rate                     : 29.970 FPS Encoded date                   : 2023-12-01 14:43:37 UTC Writing application            : mkvmerge v50.0.0 ('Awakenings') 64-bit Writing library                : libebml v1.4.0 + libmatroska v1.6.2  Video ID                             : 1 Format                         : AVC Format/Info                    : Advanced Video Codec Format profile                 : [email protected] Format settings                : CABAC / 2 Ref Frames Format settings, CABAC         : Yes Format settings, Reference fra : 2 frames Codec ID                       : V_MPEG4/ISO/AVC Duration                       : 47 min 54 s Bit rate mode                  : Variable Bit rate                       : 4 409 kb/s Maximum bit rate               : 15.0 Mb/s Width                          : 1 920 pixels Height                         : 1 080 pixels Display aspect ratio           : 16:9 Frame rate mode                : Constant Frame rate                     : 29.970 (29970/1000) FPS Original frame rate            : 29.970 (30000/1001) FPS Color space                    : YUV Chroma subsampling             : 4:2:0 Bit depth                      : 8 bits Scan type                      : Progressive Bits/(Pixel*Frame)             : 0.071 Stream size                    : 1.48 GiB (96%) Default                        : Yes Forced                         : No Color range                    : Limited Color primaries                : BT.709 Transfer characteristics       : BT.709 Matrix coefficients            : BT.709  Audio ID                             : 2 Format                         : AAC LC Format/Info                    : Advanced Audio Codec Low Complexity Codec ID                       : A_AAC-2 Duration                       : 47 min 53 s Bit rate                       : 192 kb/s Channel(s)                     : 2 channels Channel layout                 : L R Sampling rate                  : 48.0 kHz Frame rate                     : 46.875 FPS (1024 SPF) Compression mode               : Lossy Stream size                    : 65.8 MiB (4%) Title                          : 日本語 [オリジナル] Language                       : Japanese Default                        : Yes Forced                         : No

下载地址:
最新回复 (0)
返回
发新帖

ヾ(・ω・`。)快来领券!