[MagicStar] 回来跟我做个够 帰ってきたらいっぱいして。 EP07 [WEBDL] [1080p]【生】【附日字】

动漫搬运工 2月前 12


HD 1080p from TVer.
Japanese subtitles added.
alt text
alt text

General Unique ID                      : 269247438065256167467461073435919273638 (0xCA8F2B9B878FFA2885B53BFED9224EA6) Complete name                  : [MagicStar] Kaettekitara Ippai Shite. EP07 [WEBDL] [1080p].mkv Format                         : Matroska Format version                 : Version 4 File size                      : 486 MiB Duration                       : 23 min 34 s Overall bit rate               : 2 883 kb/s Frame rate                     : 29.970 FPS Encoded date                   : 2023-12-01 03:16:17 UTC Writing application            : mkvmerge v50.0.0 ('Awakenings') 64-bit Writing library                : libebml v1.4.0 + libmatroska v1.6.2  Video ID                             : 1 Format                         : AVC Format/Info                    : Advanced Video Codec Format profile                 : High@L4 Format settings                : CABAC / 4 Ref Frames Format settings, CABAC         : Yes Format settings, Reference fra : 4 frames Codec ID                       : V_MPEG4/ISO/AVC Duration                       : 23 min 33 s Bit rate                       : 2 689 kb/s Width                          : 1 920 pixels Height                         : 1 080 pixels Display aspect ratio           : 16:9 Frame rate mode                : Constant Frame rate                     : 29.970 (29970/1000) FPS Original frame rate            : 29.970 (30000/1001) FPS Color space                    : YUV Chroma subsampling             : 4:2:0 Bit depth                      : 8 bits Scan type                      : Progressive Bits/(Pixel*Frame)             : 0.043 Stream size                    : 453 MiB (93%) Default                        : Yes Forced                         : No Color range                    : Limited Color primaries                : BT.709 Transfer characteristics       : BT.709 Matrix coefficients            : BT.709  Audio ID                             : 2 Format                         : AAC LC Format/Info                    : Advanced Audio Codec Low Complexity Codec ID                       : A_AAC-2 Duration                       : 23 min 34 s Bit rate                       : 192 kb/s Channel(s)                     : 2 channels Channel layout                 : L R Sampling rate                  : 48.0 kHz Frame rate                     : 46.875 FPS (1024 SPF) Compression mode               : Lossy Stream size                    : 32.3 MiB (7%) Title                          : 日本語 [オリジナル] Language                       : Japanese Default                        : Yes Forced                         : No

下载地址:
最新回复 (0)
返回
发新帖

ヾ(・ω・`。)快来领券!