[MagicStar] STAND UP START スタンドUPスタート EP03 [WEBDL] [1080p] [FOD]【生】【附日字解说放送版音轨】

动漫搬运工 2023-2-3 79

HD 1080p from FOD.
Japanese subtitles added.
Audio description added.
alt text
alt text

General Unique ID                      : 142851045004258269387065720321478679244 (0x6B781C4AC7FE7AA987777E84DC8EDACC) Complete name                  : Stand.Up.Start.EP03.1080p.FOD.WEB-DL.AAC2.0.H.264-MagicStar.mkv Format                         : Matroska Format version                 : Version 4 File size                      : 1.51 GiB Duration                       : 44 min 48 s Overall bit rate mode          : Variable Overall bit rate               : 4 817 kb/s Encoded date                   : UTC 2023-02-02 09:26:03 Writing application            : mkvmerge v50.0.0 ('Awakenings') 64-bit Writing library                : libebml v1.4.0 + libmatroska v1.6.2  Video ID                             : 1 Format                         : AVC Format/Info                    : Advanced Video Codec Format profile                 : [email protected] Format settings                : CABAC / 2 Ref Frames Format settings, CABAC         : Yes Format settings, Reference fra : 2 frames Codec ID                       : V_MPEG4/ISO/AVC Duration                       : 44 min 48 s Bit rate mode                  : Variable Bit rate                       : 4 430 kb/s Maximum bit rate               : 15.0 Mb/s Width                          : 1 920 pixels Height                         : 1 080 pixels Display aspect ratio           : 16:9 Frame rate mode                : Constant Frame rate                     : 29.970 (29970/1000) FPS Original frame rate            : 29.970 (30000/1001) FPS Color space                    : YUV Chroma subsampling             : 4:2:0 Bit depth                      : 8 bits Scan type                      : Progressive Bits/(Pixel*Frame)             : 0.071 Stream size                    : 1.39 GiB (92%) Default                        : Yes Forced                         : No Color range                    : Limited Color primaries                : BT.709 Transfer characteristics       : BT.709 Matrix coefficients            : BT.709  Audio #1 ID                             : 2 Format                         : AAC LC Format/Info                    : Advanced Audio Codec Low Complexity Codec ID                       : A_AAC-2 Duration                       : 44 min 48 s Bit rate                       : 192 kb/s Channel(s)                     : 2 channels Channel layout                 : L R Sampling rate                  : 48.0 kHz Frame rate                     : 46.875 FPS (1024 SPF) Compression mode               : Lossy Stream size                    : 61.5 MiB (4%) Title                          : 日本語 [オリジナル] Language                       : Japanese Default                        : Yes Forced                         : No  Audio #2 ID                             : 3 Format                         : AAC LC Format/Info                    : Advanced Audio Codec Low Complexity Codec ID                       : A_AAC-2 Duration                       : 44 min 48 s Bit rate                       : 192 kb/s Channel(s)                     : 2 channels Channel layout                 : L R Sampling rate                  : 48.0 kHz Frame rate                     : 46.875 FPS (1024 SPF) Compression mode               : Lossy Stream size                    : 61.5 MiB (4%) Title                          : 日本語 [解説放送音声] Language                       : Japanese Default                        : No Forced                         : No

下载地址:
番组表

最新动漫索引表

联盟成员

字幕组成员搜索表

动画库

动画库搜索表

更多往期

更多往期列表

pFDScB6.jpg
最新回复 (0)
返回
发新帖

关注动漫公众号