[MagicStar] 最棒的大妈 中岛春子 第二季 最高のオバハン 中島ハルコ 2022 EP09 [WEBDL] [1080p] [FOD]【生】【附日字】

动漫搬运工 2月前 63


HD 1080p from FOD.
Japanese subtitles added.
alt text
alt text

General Unique ID                      : 159413558177409437148870266308587975641 (0x77EDEF3CEEEF40914E9761A6B55073D9) Complete name                  : Saikou.no.Obahan.Nakajima.Haruko.S02EP09.1080p.FOD.WEB-DL.AAC2.0.H.264-MagicStar.mkv Format                         : Matroska Format version                 : Version 4 File size                      : 1.57 GiB Duration                       : 44 min 5 s Overall bit rate mode          : Variable Overall bit rate               : 5 109 kb/s Encoded date                   : UTC 2022-12-03 21:11:34 Writing application            : mkvmerge v50.0.0 ('Awakenings') 64-bit Writing library                : libebml v1.4.0 + libmatroska v1.6.2  Video ID                             : 1 Format                         : AVC Format/Info                    : Advanced Video Codec Format profile                 : [email protected] Format settings                : CABAC / 2 Ref Frames Format settings, CABAC         : Yes Format settings, Reference fra : 2 frames Codec ID                       : V_MPEG4/ISO/AVC Duration                       : 44 min 5 s Bit rate mode                  : Variable Bit rate                       : 4 914 kb/s Maximum bit rate               : 15.0 Mb/s Width                          : 1 920 pixels Height                         : 1 080 pixels Display aspect ratio           : 16:9 Frame rate mode                : Constant Frame rate                     : 29.970 (29970/1000) FPS Original frame rate            : 29.970 (30000/1001) FPS Color space                    : YUV Chroma subsampling             : 4:2:0 Bit depth                      : 8 bits Scan type                      : Progressive Bits/(Pixel*Frame)             : 0.079 Stream size                    : 1.51 GiB (96%) Default                        : Yes Forced                         : No Color range                    : Limited Color primaries                : BT.709 Transfer characteristics       : BT.709 Matrix coefficients            : BT.709  Audio ID                             : 2 Format                         : AAC LC Format/Info                    : Advanced Audio Codec Low Complexity Codec ID                       : A_AAC-2 Duration                       : 44 min 5 s Bit rate                       : 192 kb/s Channel(s)                     : 2 channels Channel layout                 : L R Sampling rate                  : 48.0 kHz Frame rate                     : 46.875 FPS (1024 SPF) Compression mode               : Lossy Stream size                    : 60.5 MiB (4%) Language                       : Japanese Default                        : Yes Forced                         : No

下载地址:
最新回复 (0)
返回
发新帖