【2021日影】[MagicStar] 轮到你了 电影版 あなたの番です 劇場版 [WEBDL] [1080p] [AMZN]【生】【附日字】

动漫搬运工 2月前 27


HD 1080p from Prime Video.
Use CBR bitrate mode. Japanese subtitles added.


We are planning to upload all prime video japan Dramas and Movies, we need your Support!


Support Us

Ali (Zhifubao / QR code): https://i.ibb.co/FWV2ggm/1660626347125.png
PayPalMe: https://www.paypal.com/paypalme/sakuragikenji


alt text
alt text

General Unique ID                      : 167062342414894514436268744620140529818 (0x7DAF096AA6F019E50A1E8635E456089A) Complete name                  : Anata.no.Ban.Desu.The.Movie.2021.1080p.AMZN.WEB-DL.DDP5.1.H.264-MagicStar.mkv Format                         : Matroska Format version                 : Version 4 File size                      : 8.40 GiB Duration                       : 2 h 22 min Overall bit rate mode          : Constant Overall bit rate               : 8 459 kb/s Encoded date                   : UTC 2022-12-03 14:10:35 Writing application            : mkvmerge v50.0.0 ('Awakenings') 64-bit Writing library                : libebml v1.4.0 + libmatroska v1.6.2 Cover                          : Yes Attachments                    : cover.png  Video ID                             : 1 Format                         : AVC Format/Info                    : Advanced Video Codec Format profile                 : [email protected] Format settings                : CABAC / 4 Ref Frames Format settings, CABAC         : Yes Format settings, Reference fra : 4 frames Codec ID                       : V_MPEG4/ISO/AVC Duration                       : 2 h 22 min Bit rate mode                  : Constant Bit rate                       : 7 816 kb/s Nominal bit rate               : 10 000 kb/s Width                          : 1 920 pixels Height                         : 800 pixels Display aspect ratio           : 2.40:1 Frame rate mode                : Constant Frame rate                     : 23.976 (24000/1001) FPS Color space                    : YUV Chroma subsampling             : 4:2:0 Bit depth                      : 8 bits Scan type                      : Progressive Bits/(Pixel*Frame)             : 0.212 Stream size                    : 7.76 GiB (92%) Default                        : Yes Forced                         : No Color range                    : Limited Color primaries                : BT.709 Transfer characteristics       : BT.709 Matrix coefficients            : BT.709  Audio ID                             : 2 Format                         : E-AC-3 Format/Info                    : Enhanced AC-3 Commercial name                : Dolby Digital Plus Codec ID                       : A_EAC3 Duration                       : 2 h 22 min Bit rate mode                  : Constant Bit rate                       : 640 kb/s Channel(s)                     : 6 channels Channel layout                 : L R C LFE Ls Rs Sampling rate                  : 48.0 kHz Frame rate                     : 31.250 FPS (1536 SPF) Compression mode               : Lossy Stream size                    : 651 MiB (8%) Language                       : Japanese Service kind                   : Complete Main Default                        : Yes Forced                         : No

下载地址:
最新回复 (0)
返回
发新帖